best oil for massage for babies spytug.14.09.02.girl.7.mp4

 best oil for massage for babies

Download: http://rapidgator.net/file/90c8dbad39c27e08ef2b56cf2a78d2c7/a81g_cpk93.7z.html
Archive key: a81g
Technical details

General
Complete name                            : /tmp/spytug.14.09.02.girl.7.mp4/spytug.14.09.02.girl.7.mp4
Format                                   : MPEG-4
Format profile                           : Base Media / Version 2
Codec ID                                 : mp42 (mp42/mp41)
File size                                : 729 MiB
Duration                                 : 18mn 23s
Overall bit rate                         : 5 543 Kbps
Encoded date                             : UTC 2014-09-02 07:23:29
Tagged date                              : UTC 2014-09-02 07:24:08

Video
ID                                       : 1
Format                                   : AVC
Format/Info                              : Advanced Video Codec
Format profile                           : Main@L4
Format settings, CABAC                   : No
Format settings, ReFrames                : 2 frames
Format settings, GOP                     : M=2, N=30
Codec ID                                 : avc1
Codec ID/Info                            : Advanced Video Coding
Duration                                 : 18mn 23s
Bit rate                                 : 5 011 Kbps
Width                                    : 1 920 pixels
Height                                   : 1 080 pixels
Display aspect ratio                     : 16:9
Frame rate mode                          : Constant
Frame rate                               : 29.970 (30000/1001) fps
Color space                              : YUV
Chroma subsampling                       : 4:2:0
Bit depth                                : 8 bits
Scan type                                : Progressive
Bits/(Pixel*Frame)                       : 0.081
Stream size                              : 659 MiB (90%)
Language                                 : English
Encoded date                             : UTC 2014-09-02 07:23:04
Tagged date                              : UTC 2014-09-02 07:24:08
Color range                              : Limited
Color primaries                          : BT.709
Transfer characteristics                 : BT.709
Matrix coefficients                      : BT.709

Audio
ID                                       : 2
Format                                   : AAC
Format/Info                              : Advanced Audio Codec
Format profile                           : LC
Codec ID                                 : 40
Duration                                 : 18mn 23s
Source duration                          : 18mn 23s
Bit rate mode                            : Constant
Bit rate                                 : 256 Kbps
Channel(s)                               : 2 channels
Channel positions                        : Front: L R
Sampling rate                            : 44.1 KHz
Frame rate                               : 43.066 fps (1024 spf)
Compression mode                         : Lossy
Stream size                              : 33.1 MiB (5%)
Source stream size                       : 33.1 MiB (5%)
Language                                 : English
Encoded date                             : UTC 2014-09-02 07:23:04
Tagged date                              : UTC 2014-09-02 07:24:08

Other #1
ID                                       : 3
Type                                     : Hint
Format                                   : RTP
Codec ID                                 : rtp 
Duration                                 : 18mn 23s
Title                                    : Hinted Sound Track
Language                                 : English
Default                                  : No
Encoded date                             : UTC 2014-09-02 07:23:04
Tagged date                              : UTC 2014-09-02 07:24:08
Source duration                          : 1103482
Source frame count                       : 38936
Source stream size                       : 2006320
Stream size                              : 2006320
Bit rate mode                            : VBR

Other #2
ID                                       : 4
Type                                     : Hint
Format                                   : RTP
Codec ID                                 : rtp 
Duration                                 : 18mn 23s
Title                                    : Hinted Video Track
Language                                 : English
Default                                  : No
Encoded date                             : UTC 2014-09-02 07:23:11
Tagged date                              : UTC 2014-09-02 07:24:08



                        

best oil for massage for babies

massage-love in Videos