what is an erotic massage spytug.14.06.21.girl.6.mp4

 what is an erotic massage

Download: http://rapidgator.net/file/15189c5bde3bbc8e0855e925143f9dca/b8f_x6z5qs.7z.html
Archive key: b8f
Technical details

General
Complete name                            : /tmp/spytug.14.06.21.girl.6.mp4/spytug.14.06.21.girl.6.mp4
Format                                   : MPEG-4
Format profile                           : Base Media / Version 2
Codec ID                                 : mp42 (mp42/mp41)
File size                                : 229 MiB
Duration                                 : 5mn 51s
Overall bit rate                         : 5 468 Kbps
Encoded date                             : UTC 2014-06-16 05:44:48
Tagged date                              : UTC 2014-06-16 05:45:01

Video
ID                                       : 1
Format                                   : AVC
Format/Info                              : Advanced Video Codec
Format profile                           : Main@L4
Format settings, CABAC                   : No
Format settings, ReFrames                : 2 frames
Format settings, GOP                     : M=2, N=30
Codec ID                                 : avc1
Codec ID/Info                            : Advanced Video Coding
Duration                                 : 5mn 51s
Bit rate                                 : 4 945 Kbps
Width                                    : 1 920 pixels
Height                                   : 1 080 pixels
Display aspect ratio                     : 16:9
Frame rate mode                          : Constant
Frame rate                               : 29.970 (30000/1001) fps
Color space                              : YUV
Chroma subsampling                       : 4:2:0
Bit depth                                : 8 bits
Scan type                                : Progressive
Bits/(Pixel*Frame)                       : 0.080
Stream size                              : 207 MiB (90%)
Language                                 : English
Encoded date                             : UTC 2014-06-16 05:44:41
Tagged date                              : UTC 2014-06-16 05:45:01
Color range                              : Limited
Color primaries                          : BT.709
Transfer characteristics                 : BT.709
Matrix coefficients                      : BT.709

Audio
ID                                       : 2
Format                                   : AAC
Format/Info                              : Advanced Audio Codec
Format profile                           : LC
Codec ID                                 : 40
Duration                                 : 5mn 51s
Source duration                          : 5mn 51s
Bit rate mode                            : Constant
Bit rate                                 : 256 Kbps
Channel(s)                               : 2 channels
Channel positions                        : Front: L R
Sampling rate                            : 44.1 KHz
Frame rate                               : 43.066 fps (1024 spf)
Compression mode                         : Lossy
Stream size                              : 10.4 MiB (5%)
Source stream size                       : 10.4 MiB (5%)
Language                                 : English
Encoded date                             : UTC 2014-06-16 05:44:41
Tagged date                              : UTC 2014-06-16 05:45:01

Other #1
ID                                       : 3
Type                                     : Hint
Format                                   : RTP
Codec ID                                 : rtp 
Duration                                 : 5mn 51s
Title                                    : Hinted Sound Track
Language                                 : English
Default                                  : No
Encoded date                             : UTC 2014-06-16 05:44:41
Tagged date                              : UTC 2014-06-16 05:45:01
Source duration                          : 351434
Source frame count                       : 10831
Source stream size                       : 588752
Stream size                              : 588752
Bit rate mode                            : VBR

Other #2
ID                                       : 4
Type                                     : Hint
Format                                   : RTP
Codec ID                                 : rtp 
Duration                                 : 5mn 51s
Title                                    : Hinted Video Track
Language                                 : English
Default                                  : No
Encoded date                             : UTC 2014-06-16 05:44:43
Tagged date                              : UTC 2014-06-16 05:45:01



                        

what is an erotic massage

massage-love in Videos