lotus palm thai yoga massage spytug.13.11.12.girl.1.mp4

 lotus palm thai yoga massage

Download: http://rapidgator.net/file/b428adb37d66334fc163942206d8f7b6/zln1_tagx.7z.html
Archive key: zln1
Technical details

General
Complete name                            : /tmp/spytug.13.11.12.girl.1.mp4/spytug.13.11.12.girl.1.mp4
Format                                   : MPEG-4
Format profile                           : QuickTime
Codec ID                                 : qt   2005.03 (qt  )
File size                                : 320 MiB
Duration                                 : 8mn 10s
Overall bit rate                         : 5 466 Kbps
Movie name                               : SpyTug18-G1
Album/Performer                          : David Graves
Description                              : This video is about SpyTug18-G1
Encoded date                             : UTC 2013-09-30 20:18:23
Tagged date                              : UTC 2013-09-30 21:54:38
Writing library                          : Apple QuickTime
com.apple.quicktime.author               : David Graves
com.apple.quicktime.keywords             : SpyTug
com.apple.quicktime.title                : SpyTug18-G1
Media/UUID                               : A7A7C124-375F-46B6-8947-3A8FC1D70766
Keyword                                  : SpyTug

Video
ID                                       : 1
Format                                   : AVC
Format/Info                              : Advanced Video Codec
Format profile                           : Main@L4
Format settings, CABAC                   : No
Format settings, ReFrames                : 2 frames
Format settings, GOP                     : M=2, N=24
Codec ID                                 : avc1
Codec ID/Info                            : Advanced Video Coding
Duration                                 : 8mn 10s
Bit rate                                 : 5 211 Kbps
Width                                    : 1 920 pixels
Clean aperture width                     : 1 888 pixels
Height                                   : 1 080 pixels
Clean aperture height                    : 1 062 pixels
Display aspect ratio                     : 16:9
Frame rate mode                          : Constant
Frame rate                               : 29.970 (30000/1001) fps
Color space                              : YUV
Chroma subsampling                       : 4:2:0
Bit depth                                : 8 bits
Scan type                                : Progressive
Bits/(Pixel*Frame)                       : 0.084
Stream size                              : 305 MiB (95%)
Language                                 : English
Encoded date                             : UTC 2013-09-30 21:54:25
Tagged date                              : UTC 2013-09-30 21:54:38
Color range                              : Limited
Color primaries                          : BT.709
Transfer characteristics                 : BT.709
Matrix coefficients                      : BT.709

Audio
ID                                       : 2
Format                                   : AAC
Format/Info                              : Advanced Audio Codec
Format profile                           : LC
Codec ID                                 : 40
Duration                                 : 8mn 10s
Source duration                          : 8mn 10s
Bit rate mode                            : Constant
Bit rate                                 : 256 Kbps
Channel(s)                               : 2 channels
Channel positions                        : Front: L R
Sampling rate                            : 44.1 KHz
Frame rate                               : 43.066 fps (1024 spf)
Compression mode                         : Lossy
Stream size                              : 14.6 MiB (5%)
Source stream size                       : 14.6 MiB (5%)
Language                                 : English
Encoded date                             : UTC 2013-09-30 21:54:25
Tagged date                              : UTC 2013-09-30 21:54:38

Other
ID                                       : 3
Type                                     : Time code
Format                                   : QuickTime TC
Duration                                 : 8mn 10s
Time code of first frame                 : 00:00:00;00
Time code, striped                       : Yes
Language                                 : English
Encoded date                             : UTC 2013-09-30 21:54:38
Tagged date                              : UTC 2013-09-30 21:54:38



                        

lotus palm thai yoga massage

massage-love in New