how to use a prostrate massager spytug.13.09.17.girl.2.mp4

 how to use a prostrate massager

Download: http://rapidgator.net/file/b2636cb194cc67322701515ebd3cb4b9/eth_zcyb.7z.html
Archive key: eth
Technical details

General
Complete name                            : /tmp/spytug.13.09.17.girl.2.mp4/spytug.13.09.17.girl.2.mp4
Format                                   : MPEG-4
Format profile                           : QuickTime
Codec ID                                 : qt   2005.03 (qt  )
File size                                : 305 MiB
Duration                                 : 8mn 4s
Overall bit rate                         : 5 286 Kbps
Movie name                               : SpyTug2-G2
Album/Performer                          : David Graves
Description                              : This video is about SpyTug2-G2
Encoded date                             : UTC 2014-02-13 08:32:11
Tagged date                              : UTC 2014-02-13 09:07:03
Writing library                          : Apple QuickTime
com.apple.quicktime.author               : David Graves
com.apple.quicktime.keywords             : SpyTug
com.apple.quicktime.title                : SpyTug2-G2
Media/UUID                               : 55293B49-1629-4C00-B047-AF3703669BF0
Keyword                                  : SpyTug

Video
ID                                       : 1
Format                                   : AVC
Format/Info                              : Advanced Video Codec
Format profile                           : Main@L4
Format settings, CABAC                   : No
Format settings, ReFrames                : 2 frames
Format settings, GOP                     : M=2, N=24
Codec ID                                 : avc1
Codec ID/Info                            : Advanced Video Coding
Duration                                 : 8mn 4s
Bit rate                                 : 5 028 Kbps
Width                                    : 1 920 pixels
Clean aperture width                     : 1 888 pixels
Height                                   : 1 080 pixels
Clean aperture height                    : 1 062 pixels
Display aspect ratio                     : 16:9
Frame rate mode                          : Constant
Frame rate                               : 29.970 (30000/1001) fps
Color space                              : YUV
Chroma subsampling                       : 4:2:0
Bit depth                                : 8 bits
Scan type                                : Progressive
Bits/(Pixel*Frame)                       : 0.081
Stream size                              : 290 MiB (95%)
Language                                 : English
Encoded date                             : UTC 2014-02-13 09:06:52
Tagged date                              : UTC 2014-02-13 09:07:03
Color range                              : Limited
Color primaries                          : BT.709
Transfer characteristics                 : BT.709
Matrix coefficients                      : BT.709

Audio
ID                                       : 2
Format                                   : AAC
Format/Info                              : Advanced Audio Codec
Format profile                           : LC
Codec ID                                 : 40
Duration                                 : 8mn 4s
Source duration                          : 8mn 4s
Bit rate mode                            : Constant
Bit rate                                 : 256 Kbps
Channel(s)                               : 2 channels
Channel positions                        : Front: L R
Sampling rate                            : 44.1 KHz
Frame rate                               : 43.066 fps (1024 spf)
Compression mode                         : Lossy
Stream size                              : 14.6 MiB (5%)
Source stream size                       : 14.6 MiB (5%)
Language                                 : English
Encoded date                             : UTC 2014-02-13 09:06:52
Tagged date                              : UTC 2014-02-13 09:07:03

Other
ID                                       : 3
Type                                     : Time code
Format                                   : QuickTime TC
Duration                                 : 8mn 4s
Time code of first frame                 : 00:00:00;00
Time code, striped                       : Yes
Language                                 : English
Encoded date                             : UTC 2014-02-13 09:07:03
Tagged date                              : UTC 2014-02-13 09:07:03



                        

how to use a prostrate massager

massage-videos in New